<?xml version="1.0" standalone="no"?>
<!DOCTYPE svg PUBLIC "-//W3C//DTD SVG 1.1//EN" "http://www.w3.org/Graphics/SVG/1.1/DTD/svg11.dtd" >
<svg xmlns="http://www.w3.org/2000/svg">
<metadata>Generated by IcoMoon</metadata>
<defs>
<font id="vakifkatilim" horiz-adv-x="1024">
<font-face units-per-em="1024" ascent="960" descent="-64" />
<missing-glyph horiz-adv-x="1024" />
<glyph unicode="&#x20;" horiz-adv-x="512" d="" />
<glyph unicode="&#xe900;" glyph-name="arrow-down" horiz-adv-x="1483" d="M741.357 960h-741.357l741.357-1024 741.357 1024z" />
<glyph unicode="&#xe901;" glyph-name="checked" d="M11.815 408.615c-7.877 7.877-11.815 19.692-11.815 27.569s3.938 19.692 11.815 27.569l55.138 55.138c15.754 15.754 39.385 15.754 55.138 0l3.938-3.938 216.615-232.369c7.877-7.877 19.692-7.877 27.569 0l527.754 547.446h3.938c15.754 15.754 39.385 15.754 55.138 0l55.138-55.138c15.754-15.754 15.754-39.385 0-55.138v0l-630.154-653.785c-7.877-7.877-15.754-11.815-27.569-11.815s-19.692 3.938-27.569 11.815l-307.2 330.831-7.877 11.815z" />
<glyph unicode="&#xe902;" glyph-name="qr-kod-islemleri" d="M230.297 680.353c12.337 0 24.675 4.112 32.9 12.337s12.337 20.562 12.337 32.9c0 12.337-4.112 24.675-12.337 32.9-8.225 12.337-20.562 16.45-32.9 16.45s-24.675-4.112-32.9-12.337c-8.225-12.337-12.337-24.675-12.337-32.9 0-12.337 4.112-24.675 12.337-32.9 12.337-12.337 24.675-16.45 32.9-16.45zM419.47 960h-370.12c-28.787 0-49.349-20.562-49.349-45.237v-370.12c0-24.675 20.562-45.237 45.237-45.237h370.12c24.675 0 45.237 20.562 45.237 45.237v370.12c4.112 24.675-16.45 45.237-41.124 45.237zM370.12 589.88h-275.534v275.534h275.534v-275.534zM789.59 774.94c-12.337 0-24.675-4.112-32.9-12.337s-12.337-20.562-12.337-32.9c0-12.337 4.112-24.675 12.337-32.9s20.562-12.337 32.9-12.337c12.337 0 24.675 4.112 32.9 12.337s12.337 20.562 12.337 32.9c0 12.337-4.112 24.675-12.337 32.9s-20.562 12.337-32.9 12.337zM974.651 960h-370.12c-24.675 0-45.237-20.562-45.237-45.237v-370.12c0-24.675 20.562-45.237 45.237-45.237h370.12c24.675 0 45.237 20.562 45.237 45.237v370.12c4.112 24.675-16.45 45.237-45.237 45.237zM649.767 589.88v275.534h279.647v-275.534h-279.647zM230.297 125.173c12.337 0 24.675 4.112 32.9 12.337s12.337 20.562 12.337 32.9c0 12.337-4.112 24.675-12.337 32.9s-20.562 12.337-32.9 12.337c-12.337 0-24.675-4.112-32.9-12.337s-12.337-20.562-12.337-32.9c0-12.337 4.112-24.675 12.337-32.9 12.337-8.225 24.675-12.337 32.9-12.337zM419.47 400.707h-370.12c-24.675 0-45.237-20.562-45.237-45.237v-370.12c0-24.675 20.562-45.237 45.237-45.237h370.12c24.675 0 45.237 20.562 45.237 45.237v370.12c0 24.675-20.562 45.237-45.237 45.237zM370.12 30.586h-275.534v279.647h275.534v-279.647zM822.49 125.173c24.675 0 45.237 20.562 45.237 45.237s-20.562 45.237-45.237 45.237h-32.9c-24.675 0-45.237-20.562-45.237-45.237s20.562-45.237 45.237-45.237h32.9zM974.651 125.173c-24.675 0-45.237-20.562-45.237-45.237v-45.237h-106.924c-24.675 0-45.237-20.562-45.237-45.237s20.562-45.237 45.237-45.237h156.273c24.675 0 45.237 20.562 45.237 45.237v94.586c0 20.562-20.562 41.124-49.349 41.124zM604.53 215.647c-24.675 0-45.237-20.562-45.237-45.237v-61.687c0-24.675 20.562-45.237 45.237-45.237s45.237 20.562 45.237 45.237v61.687c0 24.675-20.562 45.237-45.237 45.237zM867.727 355.47c0 24.675-20.562 45.237-45.237 45.237h-94.586c-24.675 0-45.237-20.562-45.237-45.237s20.562-45.237 45.237-45.237h94.586c24.675 0 45.237 20.562 45.237 45.237z" />
<glyph unicode="&#xe903;" glyph-name="ucretsiz-eft-havale" d="M509.944 153.96c164.498 0 300.209 131.598 300.209 296.096 0 160.386-135.711 296.096-300.209 296.096-86.361 0-164.498-37.012-222.072-94.586-49.349-53.462-82.249-123.373-82.249-201.51 4.112-164.498 139.823-296.096 304.321-296.096zM382.458 454.169c24.675 8.225 49.349 16.45 74.024 24.675 0 4.112 0 12.337 0 16.45-24.675-8.225-49.349-16.45-74.024-24.675 0 8.225 0 20.562 0 28.787 24.675 8.225 49.349 16.45 74.024 24.675 0 37.012 0 74.024 0 115.149 12.337 0 24.675 0 41.124 0 0-32.9 0-65.799 0-98.699 41.124 12.337 78.137 28.787 119.261 41.124 0-12.337 0-20.562 0-32.9-41.124-12.337-78.137-28.787-119.261-41.124 0-4.112 0-12.337 0-16.45 41.124 12.337 78.137 28.787 119.261 41.124 0-12.337 0-20.562 0-32.9-41.124-16.45-78.137-28.787-119.261-41.124 0-53.462 0-111.036 0-164.498 41.124 4.112 69.912 24.675 94.586 49.349 12.337 12.337 20.562 24.675 28.787 45.237 8.225 16.45 12.337 37.012 12.337 57.574 12.337 0 28.787 0 41.124 0 0 0 0-4.112 0-4.112 0-32.9-8.225-57.574-20.562-78.137s-24.675-41.124-45.237-57.574c-16.45-16.45-37.012-28.787-61.687-37.012s-53.462-12.337-86.361-12.337c0 61.687 0 127.486 0 189.173-24.675-8.225-49.349-16.45-74.024-24.675-4.112 12.337-4.112 20.562-4.112 32.9zM838.94 129.285c-172.723-168.61-452.369-176.835-633.317-16.45h57.574v61.687h-164.498v-160.386h61.687v57.574c98.699-90.474 226.185-131.598 353.671-131.598 135.711 0 267.309 49.349 370.12 148.048l20.562 20.562-45.237 41.124-20.562-20.562zM863.614 885.976v-57.574c-98.699 86.361-226.185 131.598-353.671 131.598-135.711 0-267.309-49.349-370.12-148.048l-20.562-24.675 45.237-41.124 20.562 20.562c172.723 168.61 452.369 176.835 633.317 16.45h-57.574v-61.687h164.498v164.498h-61.687z" />
<glyph unicode="&#xe904;" glyph-name="kart-islemleri" d="M999.325 532.305h-978.763c-12.337 0-20.562-8.225-20.562-20.562v-291.984c0-57.574 45.237-102.811 106.924-102.811h810.153c57.574 0 106.924 45.237 106.924 102.811v291.984c0 12.337-8.225 20.562-24.675 20.562zM148.048 363.695h168.61c12.337 0 20.562-8.225 20.562-20.562s-8.225-20.562-20.562-20.562h-168.61c-12.337 0-20.562 8.225-20.562 20.562s8.225 20.562 20.562 20.562zM448.257 240.321h-300.209c-12.337 0-20.562 8.225-20.562 20.562s8.225 20.562 20.562 20.562h300.209c12.337 0 20.562-8.225 20.562-20.562s-8.225-20.562-20.562-20.562zM810.153 240.321c-16.45 0-28.787 4.112-41.124 12.337-12.337-8.225-24.675-12.337-41.124-12.337-45.237 0-86.361 37.012-86.361 82.249s37.012 82.249 86.361 82.249c16.45 0 28.787-4.112 41.124-12.337 12.337 8.225 24.675 12.337 41.124 12.337 45.237 0 86.361-37.012 86.361-82.249s-41.124-82.249-86.361-82.249zM917.076 783.165h-810.153c-61.687 0-106.924-45.237-106.924-102.811v-41.124c0-12.337 8.225-20.562 20.562-20.562h978.763c12.337 0 20.562 8.225 20.562 20.562v41.124c4.112 57.574-45.237 102.811-102.811 102.811z" />
<glyph unicode="&#xe905;" glyph-name="tek-pin-giris" d="M806.040 532.305c-16.45 0-32.9-16.45-32.9-32.9v-32.9h65.799v32.9c0 16.45-16.45 32.9-32.9 32.9zM896.514 688.578h-769.028c-69.912 0-127.486-57.574-127.486-127.486v-226.185c0-69.912 57.574-127.486 127.486-127.486h773.141c69.912 0 127.486 57.574 127.486 127.486v226.185c-4.112 69.912-61.687 127.486-131.598 127.486zM271.422 413.044l28.787-32.9-53.462-41.124-20.562 41.124c-4.112 4.112-8.225 16.45-16.45 32.9-4.112-16.45-8.225-28.787-8.225-32.9l-20.562-41.124-53.462 41.124 32.9 32.9c8.225 8.225 16.45 16.45 28.787 24.675-8.225 0-20.562 4.112-37.012 4.112l-45.237 8.225 16.45 61.687 41.124-20.562c4.112 0 16.45-8.225 32.9-16.45-4.112 16.45-4.112 28.787-8.225 37.012l-4.112 45.237h61.687l-4.112-45.237c0-12.337-4.112-24.675-8.225-37.012 8.225 4.112 12.337 8.225 16.45 8.225 8.225 4.112 12.337 8.225 20.562 8.225l41.124 20.562 16.45-61.687-45.237-8.225c-8.225 0-20.562-4.112-37.012-4.112 12.337-8.225 20.562-16.45 24.675-24.675zM567.518 413.044l28.787-32.9-53.462-41.124-20.562 41.124c-4.112 4.112-8.225 16.45-16.45 32.9-8.225-16.45-12.337-28.787-16.45-32.9l-20.562-41.124-53.462 41.124 32.9 32.9c8.225 8.225 16.45 16.45 24.675 24.675-8.225 0-20.562 4.112-37.012 4.112l-45.237 8.225 20.562 61.687 41.124-20.562c4.112 0 16.45-8.225 32.9-16.45-4.112 16.45-4.112 28.787-8.225 37.012l-4.112 45.237h65.799l-4.112-45.237c0-12.337-4.112-24.675-8.225-37.012 8.225 4.112 12.337 8.225 16.45 8.225 8.225 4.112 12.337 8.225 20.562 8.225l41.124 20.562 20.562-61.687-45.237-8.225c-8.225 0-20.562-4.112-37.012-4.112 12.337-8.225 20.562-16.45 24.675-24.675zM900.627 359.582c0-12.337-12.337-24.675-24.675-24.675h-135.711c-12.337 0-24.675 12.337-24.675 24.675v82.249c0 12.337 12.337 24.675 24.675 24.675v0 32.9c0 37.012 28.787 65.799 65.799 65.799s65.799-28.787 65.799-65.799v-32.9h4.112c12.337 0 24.675-12.337 24.675-24.675v-82.249z" />
<glyph unicode="&#xe906;" glyph-name="notification" horiz-adv-x="896" d="M890.667 117.333c-85.333 85.333-128 186.667-128 304v165.333c0 128-85.333 213.333-160 245.333-21.333 10.667-42.667 16-64 21.333v16c0 53.333-42.667 90.667-90.667 90.667-53.333 0-90.667-42.667-90.667-90.667v-16c-26.667-5.333-42.667-10.667-64-21.333-80-37.333-160-128-165.333-245.333v-165.333c0-117.333-42.667-218.667-122.667-304-5.333-5.333-5.333-10.667-5.333-21.333 0-5.333 5.333-10.667 16-10.667l176-32c32-5.333 64-10.667 90.667-16 32-64 96-106.667 165.333-106.667s133.333 42.667 165.333 106.667c26.667 5.333 58.667 10.667 90.667 16l176 32c5.333 0 10.667 5.333 16 10.667 0 10.667 0 16-5.333 21.333zM389.333 869.333c0 32 26.667 53.333 53.333 53.333 32 0 53.333-26.667 53.333-53.333v-5.333c-32 5.333-69.333 5.333-106.667 5.333v0zM448-26.667c-48 0-90.667 21.333-117.333 64 42.667-5.333 80-5.333 117.333-5.333s80 0 117.333 5.333c-26.667-42.667-69.333-64-117.333-64zM698.667 90.667c-37.333-5.333-69.333-10.667-101.333-16 0 0 0 0 0 0-16 0-26.667-5.333-37.333-5.333 0 0 0 0 0 0-10.667 0-21.333 0-37.333-5.333 0 0-5.333 0-5.333 0-10.667 0-21.333 0-32 0 0 0-5.333 0-5.333 0-21.333 0-48 0-69.333 0 0 0-5.333 0-5.333 0-10.667 0-21.333 0-26.667 0 0 0-5.333 0-5.333 0-10.667 0-21.333 0-32 5.333 0 0 0 0 0 0-10.667 0-26.667 5.333-37.333 5.333 0 0 0 0 0 0-32 5.333-64 10.667-101.333 16l-149.333 26.667c74.667 85.333 112 186.667 112 304v165.333c0 101.333 74.667 181.333 144 213.333 21.333 10.667 42.667 16 64 21.333 0 0 0 0 0 0 48 10.667 96 10.667 138.667 0 0 0 0 0 0 0 26.667-5.333 53.333-10.667 74.667-21.333 69.333-32 138.667-106.667 138.667-213.333v-165.333c0-112 42.667-218.667 117.333-304l-144-26.667zM565.333 746.667c-69.333 32-160 32-229.333 0-42.667-16-112-69.333-112-160 0-10.667 10.667-16 16-21.333 0 0 0 0 0 0 10.667 0 16 10.667 16 16 0 69.333 58.667 112 90.667 128 64 26.667 138.667 26.667 202.667 0 10.667-5.333 21.333 0 26.667 10.667 0 16 0 26.667-10.667 26.667z" />
<glyph unicode="&#xe907;" glyph-name="document" horiz-adv-x="768" d="M759.467 738.133l-213.333 213.333c0 8.533-8.533 8.533-8.533 8.533h-452.267c-51.2 0-85.333-34.133-85.333-85.333v-853.333c0-51.2 34.133-85.333 85.333-85.333h597.333c51.2 0 85.333 34.133 85.333 85.333v699.733c0 8.533 0 17.067-8.533 17.067zM554.667 883.2l136.533-136.533h-93.867c-25.6 0-42.667 17.067-42.667 42.667v93.867zM725.333 21.333c0-25.6-17.067-42.667-42.667-42.667h-597.333c-25.6 0-42.667 17.067-42.667 42.667v853.333c0 25.6 17.067 42.667 42.667 42.667h426.667v-128c0-51.2 34.133-85.333 85.333-85.333h128v-682.667zM622.933 362.667h-469.333c-17.067 0-25.6-8.533-25.6-25.6s8.533-25.6 25.6-25.6h469.333c8.533 0 25.6 8.533 25.6 25.6s-17.067 25.6-25.6 25.6zM622.933 490.667h-469.333c-8.533 0-25.6-8.533-25.6-25.6 0-8.533 8.533-17.067 25.6-17.067h469.333c8.533 0 25.6 8.533 25.6 17.067-8.533 17.067-17.067 25.6-25.6 25.6zM622.933 234.667h-469.333c-8.533 0-25.6-8.533-25.6-25.6 0-8.533 8.533-17.067 25.6-17.067h469.333c8.533 0 25.6 8.533 25.6 17.067-8.533 17.067-17.067 25.6-25.6 25.6zM409.6 106.667h-256c-8.533 0-25.6-8.533-25.6-25.6 0-8.533 8.533-25.6 25.6-25.6h256c8.533 0 25.6 8.533 25.6 25.6-8.533 17.067-17.067 25.6-25.6 25.6zM128 593.067c0-8.533 8.533-17.067 17.067-17.067h469.333c8.533 0 17.067 8.533 17.067 17.067 8.533 17.067 0 25.6-8.533 25.6h-469.333c-17.067 0-25.6-8.533-25.6-25.6z" />
<glyph unicode="&#xe908;" glyph-name="refresh" d="M1015.467 507.733c0 17.067-25.6 34.133-42.667 34.133-25.6-8.533-34.133-25.6-34.133-42.667 0 0 0 0 0 0 42.667-230.4-119.467-443.733-358.4-486.4s-460.8 110.933-503.467 341.333c-42.667 230.4 119.467 443.733 358.4 486.4 145.067 25.6 298.667-25.6 392.533-128l-170.667-59.733c-25.6-8.533-34.133-25.6-25.6-51.2v0c0-17.067 25.6-25.6 51.2-17.067 0 0 0 0 0 0l238.933 76.8c17.067 8.533 25.6 17.067 25.6 34.133v230.4c0 17.067-17.067 34.133-42.667 34.133s-42.667-17.067-42.667-34.133v-136.533c-204.8 179.2-529.067 170.667-716.8-25.6s-187.733-503.467 17.067-691.2 529.067-179.2 725.333 17.067c110.933 110.933 153.6 264.533 128 418.133z" />
<glyph unicode="&#xe909;" glyph-name="search" d="M1016.889-14.222l-248.889 248.889c64 78.222 106.667 177.778 106.667 284.444 0 241.778-199.111 440.889-440.889 440.889s-433.778-199.111-433.778-433.778c0-241.778 199.111-433.778 433.778-433.778 106.667 0 206.222 42.667 284.444 106.667l248.889-248.889c7.111-7.111 14.222-7.111 21.333-7.111s14.222 0 21.333 7.111 14.222 28.444 7.111 35.556zM64 526.222c0 206.222 170.667 376.889 376.889 376.889s376.889-170.667 376.889-376.889c0-206.222-170.667-376.889-376.889-376.889-213.333 0-376.889 163.556-376.889 376.889z" />
<glyph unicode="&#xe90a;" glyph-name="arrow-empty-left" horiz-adv-x="601" d="M202.094 447.792l383.167 383.167c10.615 10.615 16.442 24.559 16.442 39.545s-5.828 29.138-16.442 39.545l-33.509 33.509c-10.615 10.615-24.767 16.442-39.753 16.442s-29.138-5.828-39.545-16.442l-456.221-456.013c-10.407-10.615-16.234-24.767-16.234-39.753s5.828-29.138 16.234-39.753l455.597-455.597c10.615-10.615 24.559-16.442 39.545-16.442s29.138 5.828 39.545 16.442l33.925 33.509c21.854 21.854 21.854 57.444 0 79.298l-382.751 382.543z" />
<glyph unicode="&#xe90b;" glyph-name="arrow-empty-right" horiz-adv-x="601" d="M585.262 487.961l-455.597 455.597c-10.615 10.615-24.767 16.442-39.753 16.442s-29.138-5.828-39.545-16.442l-33.509-33.509c-21.854-21.854-21.854-57.444 0-79.089l382.751-382.751-383.167-383.167c-10.615-10.407-16.442-24.559-16.442-39.545s5.828-29.138 16.442-39.545l33.509-33.509c10.615-10.615 24.559-16.442 39.545-16.442s29.138 5.828 39.545 16.442l456.221 456.013c10.615 10.615 16.442 24.767 16.234 39.753 0.208 14.985-5.62 29.138-16.234 39.753z" />
<glyph unicode="&#xe90c;" glyph-name="arrow-empty-down" horiz-adv-x="1743" d="M871.693 279.931l-652.087 652.087c-18.064 18.064-41.796 27.982-67.299 27.982s-49.588-9.918-67.299-27.982l-57.027-57.027c-18.064-18.064-27.982-42.15-27.982-67.653s9.918-49.588 27.982-67.299l776.058-776.412c18.064-17.71 42.15-27.628 67.653-27.628s49.588 9.918 67.653 27.628l775.35 775.35c18.064 18.064 27.982 41.796 27.982 67.299s-9.918 49.588-27.982 67.299l-57.027 57.735c-37.191 37.191-97.76 37.191-134.951 0l-651.025-651.379z" />
<glyph unicode="&#xe90d;" horiz-adv-x="1343" d="M1214.745 357.647c0 66.259-54.212 120.471-120.471 120.471h-60.235v150.588c0 52.204-34.133 96.376-80.314 113.443v47.184c0 66.259-54.212 120.471-120.471 120.471h-712.784c-66.259 0-120.471-54.212-120.471-120.471v-712.784c0-66.259 54.212-120.471 120.471-120.471h712.784c24.094 0 47.184 7.027 66.259 20.078h14.055c66.259 0 120.471 54.212 120.471 120.471v130.51h180.706v130.51z" />
<glyph unicode="&#xe90e;" horiz-adv-x="1343" d="M1214.745 506.227v122.478c0 64.251-51.2 116.455-114.447 120.471v90.353c0 66.259-54.212 120.471-120.471 120.471h-783.059c-66.259 0-120.471-54.212-120.471-120.471v-783.059c0-66.259 54.212-120.471 120.471-120.471h897.506c66.259 0 120.471 54.212 120.471 120.471v137.537c73.286 17.067 128.502 80.314 128.502 156.612v0c0 75.294-55.216 139.545-128.502 155.608zM1086.243-13.804h-887.467c-39.153 0-72.282 32.125-72.282 72.282v779.043c0 39.153 32.125 72.282 72.282 72.282h780.047c39.153 0 72.282-32.125 72.282-72.282v-86.337l-749.929-2.008c-17.067 0-30.118 13.051-30.118 30.118s13.051 30.118 30.118 30.118h662.588c-12.047 21.082-38.149 48.188-64.251 48.188h-622.431c-52.204 0-92.361-58.227-57.224-113.443 18.071-29.114 51.2-45.176 85.333-45.176h781.051c43.169 0 78.306-35.137 78.306-78.306v-110.431h-158.62c-91.357 0-165.647-72.282-165.647-160.627v0c0-88.345 74.29-160.627 165.647-160.627h158.62v-125.49c0-42.165-35.137-77.302-78.306-77.302zM1174.588 230.149h-165.647c-68.267 0-123.482 54.212-123.482 119.467s55.216 119.467 123.482 119.467h165.647c68.267 0 123.482-54.212 123.482-119.467s-56.22-119.467-123.482-119.467z" />
<glyph unicode="&#xe90f;" horiz-adv-x="1343" d="M1064.157 349.616c0-36.039-29.216-65.255-65.255-65.255s-65.255 29.216-65.255 65.255c0 36.039 29.216 65.255 65.255 65.255s65.255-29.216 65.255-65.255z" />
<glyph unicode="&#xe910;" horiz-adv-x="1343" d="M617.412 46.431h-361.412c-30.118 0-55.216 25.098-55.216 55.216v0c0 30.118 25.098 55.216 55.216 55.216h361.412c30.118 0 55.216-25.098 55.216-55.216v0c0-30.118-25.098-55.216-55.216-55.216z" />
<glyph unicode="&#xe911;" horiz-adv-x="1306" d="M1110.258-39.355h-988.265c-46.826 0-85.025 38.2-85.025 85.025v545.887c0 46.826 38.2 85.025 85.025 85.025h989.497c46.826 0 85.025-38.2 85.025-85.025v-545.887c-1.232-46.826-39.432-85.025-86.258-85.025z" />
<glyph unicode="&#xe912;" horiz-adv-x="1306" d="M12.323 539.803h1281.54v-36.968h-1281.54v36.968z" />
<glyph unicode="&#xe913;" horiz-adv-x="1306" d="M1158.315 798.575h-1010.445c-81.329 0-147.87-66.542-147.87-147.87v-566.835c0-81.329 66.542-147.87 147.87-147.87h554.513v46.826h-558.209c-59.148 0-107.206 48.058-107.206 107.206v555.745c0 59.148 48.058 107.206 107.206 107.206h1019.071c59.148 0 107.206-48.058 107.206-107.206v-556.977c0-59.148-48.058-107.206-107.206-107.206h-239.057v-46.826h234.128c81.329 0 147.87 66.542 147.87 147.87v566.835c0 82.561-66.542 149.102-147.87 149.102z" />
<glyph unicode="&#xe914;" horiz-adv-x="1306" d="M203.321 207.095h172.515c23.413 0 43.129-19.716 43.129-43.129v0c0-23.413-19.716-43.129-43.129-43.129h-172.515c-23.413 0-43.129 19.716-43.129 43.129v0c0 23.413 19.716 43.129 43.129 43.129z" />
<glyph unicode="&#xe915;" horiz-adv-x="1306" d="M1233.483 762.84c-24.645 67.774-99.812 123.225-167.586 123.225h-839.162c-34.503 0-60.38-14.787-73.935-38.2h101.045c3.697 0 6.161 0 9.858-1.232h820.679c48.058 0 101.045-38.2 119.528-85.025l29.574 1.232z" />
<glyph unicode="&#xe916;" horiz-adv-x="1306" d="M1004.284 921.8c-20.948 23.413-44.361 38.2-66.542 38.2h-550.816c-22.181 0-39.432-14.787-49.29-38.2h666.647z" />
<glyph unicode="&#xe917;" horiz-adv-x="1306" d="M203.321 256.385h505.223c23.413 0 43.129 19.716 43.129 43.129v0c0 23.413-19.716 43.129-43.129 43.129h-505.223c-23.413 0-43.129-19.716-43.129-43.129v0c0-23.413 19.716-43.129 43.129-43.129z" />
</font>
</defs>
</svg>
